28‏/03‏/2017

Shingeki no Bahamut - GENESIS Short Story 2

 つ☯﹏☯༽つ

يسرّني أن أقدّم لكم بالتعاون مع StormFS الترجمة الحصرية للحلقة القصيرة الثانية
من أنمي Shingeki no Bahamut - GENESIS

هذه الحلقة تربط بين الموسم الأول بالموسم الثاني القادم في شهر أبريل

صدرت هذه الحلقة على قناة اليوتوب الخاصة بـ CygamesChannel

أتمنّى أن تنال الحلقة إعجابكم، فقد أخرجناها بأبهى حلّة

وفي كلّ الأحوال لن تجدوا إصدارًا مماثلا


استمتعوا^^


  



Staff Credits

TL: Decimo 
Timing : Fartzilla's
TLC: Abraham Hidan & Omar Hidan
Chapter: Decimo
Server: Decimo

Mediainfo
Source: Webrip
Resolution: 1920X1080
Vídeo: h.264
 Audio: AAC 
 Format: MKV - Softsub



 Torrent // Filefactory // Mega // 1fichier // MegatoBox

Short Story 1: الحلقة السابقة


مشاهدة مباشرة

هناك 9 تعليقات:

  1. اخوي الترجمه وين -_-

    ردحذف
    الردود
    1. General
      Unique ID : 199671972071501030794017293804187568501 (0x96376C4A2B5F41C1BDEEAF063F524975)
      Complete name : E:\Seedbox\Shingeki no Bahamut GENESIS\[StormFS&Hidan] Shingeki no Bahamut - GENESIS Short story #2 (Webrip 1080p AAC) [CD965B5F].mkv
      Format : Matroska
      Format version : Version 4 / Version 2
      File size : 117 MiB
      Duration : 7 min 31 s
      Overall bit rate : 2 167 kb/s
      Encoded date : UTC 2017-03-28 13:48:20
      Writing application : mkvmerge v10.0.0 ('To Drown In You') 64bit
      Writing library : libebml v1.3.4 + libmatroska v1.4.5
      Attachments : ae_AlMothnna_bold[1]_0.ttf / Bahij_Hassan-Bold[1]_0.ttf / Bahij_Hassan-Regular[1]_0.ttf / Bahij_TheSansArabic-Bold[1]_0.ttf / Bahij_Yakout-Bold[1]_0.ttf / Bustan-Bold-bee63a57af2ce7e0289812eb9d40c99c[1]_0.ttf / nasalization-rg[1]_0.ttf / PirataOne-Regular[1]_0.ttf

      Video
      ID : 1
      Format : AVC
      Format/Info : Advanced Video Codec
      Format profile : High@L4
      Format settings, CABAC : Yes
      Format settings, ReFrames : 2 frames
      Codec ID : V_MPEG4/ISO/AVC
      Duration : 7 min 31 s
      Bit rate : 1 920 kb/s
      Width : 1 920 pixels
      Height : 1 080 pixels
      Display aspect ratio : 16:9
      Frame rate mode : Constant
      Frame rate : 23.976 (24000/1001) FPS
      Color space : YUV
      Chroma subsampling : 4:2:0
      Bit depth : 8 bits
      Scan type : Progressive
      Bits/(Pixel*Frame) : 0.039
      Stream size : 103 MiB (89%)
      Language : Japanese
      Default : Yes
      Forced : No
      Color range : Limited
      Color primaries : BT.709
      Transfer characteristics : BT.709
      Matrix coefficients : BT.709

      Audio
      ID : 2
      Format : AAC
      Format/Info : Advanced Audio Codec
      Format profile : LC
      Codec ID : A_AAC
      Duration : 7 min 31 s
      Bit rate : 126 kb/s
      Channel(s) : 2 channels
      Channel positions : Front: L R
      Sampling rate : 44.1 kHz
      Frame rate : 43.066 FPS (1024 spf)
      Compression mode : Lossy
      Stream size : 6.76 MiB (6%)
      Language : Japanese
      Default : Yes
      Forced : No

      Text
      ID : 3
      Format : ASS
      Codec ID : S_TEXT/ASS
      Codec ID/Info : Advanced Sub Station Alpha
      Duration : 7 min 17 s
      Bit rate : 221 b/s
      Count of elements : 108
      Compression mode : Lossless
      Stream size : 11.8 KiB (0%)
      Language : Arabic
      Default : Yes
      Forced : No

      Menu
      00:00:00.000 : :(Part_01)
      00:02:27.640 : :(Part_02)
      00:06:22.930 : :(ED)

      الترجمة موجودة

      حذف
  2. شكرا جزيلا عمر.
    بالمناسبة، ألازلت على قرار ترجمة الأنمي في شكل أفلام؟

    ردحذف
  3. مشكووور يعطيك العافية

    ردحذف
  4. الف الف شكر اخي

    هل فقط حلقتين؟

    ردحذف
  5. مشكوووووووووووور عمر :3

    ردحذف
  6. شكرا لك على الحلقه الثانيه

    ردحذف